Vp9 Golden Frame

Uncompressed Header 4. (Specifically, a frame may use any references whose width and height are between 1/16th that of the current frame and twice that of the current frame, inclusive. HK VP9 vs Sig P320C 9mm's - Neck n Neck race. Shop for LCP, VP9, NXR OCG-Main-Products at Osage County Guns. 02″ Having to travel 0. Please visit our official homepage at www. HK VP9/40/VP9/40SK Optic Milling $190. With its reversible magazine release and a slide lock/release lever accessible on both sides of the gun for easy manipulations, the VP9 B is an ambidextrous pistol suitable for all shooters, right or left handed. Media Format Description The VP9 codec can maintain up to eight reference frames, of which up to three can be referenced or updated by any new frame. Heckler and Koch VP9 Grey 9mm $ 619. With Crimson Trace. If I tax the GPU while playing, it starts to drop frames. The group using in vp9 is as below: it starts from key frame, but when the golden reference frame is updated, it makes a gf group. The VP9 is well-suited for civilian sport shooting, security, military, and law enforcement use. VP8 uses three types of reference frames for inter prediction: the last frame, a "golden" frame (one frame worth of decompressed data from the arbitrarily distant past) and an alternate reference frame. The Real Housewives of New York City S12E11 Alone S07E01 Birds of Prey (and the Fantabulous Emancipation of One Harley Quinn) 2020 billions Gangs of London S01E08 Condor s02e01 Marvels Agents of S. Item Relisted! FS HK VP9 Long Slide Conversion Kit (VP9L) Thread in 'Trash Pile' started by tjrcs, Apr 7, 2019. VP9におけるI、P、BフレームはI、P、golden frames、alt ref frames YUVで色差成分が間引かれてる様子はGIMPの色分解で調べられるNL-Means適用の参考 yuv444の0-255フルレンジもといPCレンジはRGB888と等価でない、計算誤差あり. While this is an open forum, it's also a family friendly one, so please keep your. I like the VP9 texture better than the P30 - but both are good. This includes 2 17-round magazines, ma. Details Heckler & Koch SFP9 The SFP9 is H&K's entrant into the safe action, striker fire, polymer handgun market. and ALTREF (or invisible) frame) chosen from a pool of eight Fast Video Transcoding from HEVC to VP9 343 [9] G. More uint32_t ref0_width Holds a copy of the VP9 bitstream field. Fits 9mm chambered HK VP9 with 4-1/2" barrel; 1-10" RH. Enhanced Slide Cap VP9, VP9SK & VP40 - HK Red - $29. HK VP9 - Frame Parts. uint32_t alt_ref_frame: 3 Index of reference_frames[] and points to the ALTERNATE reference frame. Columbus, Georgia — Heckler & Koch added a. The VP9 has a 1913 Picatinny rail, enlarged heavy-duty external extractor/ loaded chamber indicator, front slide serrations and rear charging support wings. This brand new Heckler & Koch VP9 (81000483) is a semi-automatic pistol which fires the 9mm round. For over half a century, Heckler & Koch has been a leading designer and manufacturer of small arms and light weapons for law enforcement and military forces worldwide. 81000137, UPC 642230256873 , VP9 Midnight Bronze 9mm with two 15rd magazines - MSRP $799. We currently offer HK VP9 P30 magazine upgrades, such as a magazine plate with a built-in finger extension for better grip and tighter groupings at the range, and we have plans to expand our selection of aftermarket VP9 P30 P30SK VP9SK parts to include many more options for customization and upgrading. Any frame can be marked as hidden (not for display). FN 66100587 509 Mid-Size MRD 9mm Luger 4" 15+1 NMS Black Black Steel Slide Black Interchangeable. 874 cm Front Sight: White Dot Rear Sight: White 2-Dot Overall Length: 6. Dismiss Join GitHub today. Hi Neil, Le jeudi 16 janvier 2020 à 14:34 +0100, Neil Armstrong a écrit : > From: Maxime Jourdan > > This adds VP9 decoding for the Amlogic GXL, G12A & SM1 SoCs, using. 2, DMDext, X/UltraDMD, B2S, DX9webinstaller. Checkered grip frame provides a secure and comfortable grip. More uint32_t width Holds a copy of the VP9 bitstream field. The Heckler & Koch VP9 is a polymer-framed semi-automatic striker-fired handgun. In development for more than four years, the VP9 is Heckler & Koch's latest handgun and the first striker fired HK since the renowned P7 series pistols were introduced in the 1980s. GP G&P HID Flashlight Sight : Solarforce Flashlight : 6P 9P 12P L600M L600 L600S L1200 T7 T700: Ultrafire Flashlight : Ultrafire UF-007 Recoil LED CREE Lumen CREE R2 CREE Q5 P4 Bulb for Surefire 6P 9P : Green Laser Sight : Red Dot Sights : Rifle Scopes : the premier retailer of Red Dot Sights : Rifle Scopes in the world. ) This allows internal resolution changes without requiring the use of key frames. Heckler & Koch (pronounced "coke," if you didn't know) is a German company, and I'd heard rumors for a while that it was going to be producing a new striker-fired gun. 09 inches long. After four years of development the HK VP9 was born. The golden ratio (symbol is the Greek letter "phi" shown at left) is a special number approximately equal to 1. 99 H&K VP9 Optics Ready Night Sights 9mm Pistol, (3)-17Rd Magazines, 4. 357 - 13 Rounds. It has built in all the required video codecs and audio codecs to encode from and into any. For all of those fortunate men and women who will be joining our squadron in the near future, be sure to read about the information for 'New Arrivals'. The VP9 has an extended Picatinny MIL-STD-1913 rail molded into its polymer frame for mounting lights and accessories. More NvMediaRefSurface * AltReference Holds a pointer to the alternate reference frame. A bunch of people have asked me about my HK VP9 and why I chose it over the Glock 19 I carried before it. US Made, Always In Stock, Lifetime Warranty, & Free Shipping. since key frame and gf frame are referenced by the following frames, they have a. Add to Wishlist. 41 inches in height, 1. After a slightly rough take up the trigger would hit a snag then jerk and hit the wall. 5 fps and 15 fps respectively, i. For over half a century, Heckler & Koch has been a leading designer and manufacturer of small arms and light weapons for law enforcement and military forces worldwide. the pistol features a black frame finish, semi automatic action, 4 inch barrel, 17 round capacity, two 17 round magazines, and much more! this h&k vp9 is new in box the pistol is in overall mint condition. call 011 285 2500. The VP9 is a better pistol period. The VP9 is well-suited for civilian sport shooting, security, military, and law enforcement use. Frame Mounted Compensator 9-Slots Rail (UWD9HN4S8) by cynosurex on Shapeways. Umarex 2252308. The world is filled with plastic fantastics. 09" Barrel, Polymer Frame, Black, 3 Dot Sights, Optics Ready, 10Rd, 2 Magazines: $660. mkv As the input -framerate is lower than the output fps,. For all of those fortunate men and women who will be joining our squadron in the near future, be sure to read about the information for 'New Arrivals'. The encoder uses a golden frame as a frame that we've seen at an arbitrary distance in the past. Welcome to the "Official" Facebook page for the World Famous Golden Eagles of Patrol Squadron NINE. - HKM700009TLE-A5 PRODUCT DETAILS FAMILY:VP Series MODEL:VP9 Tactical TYPE:Semi-Auto Pistol ACTION:Double Action Only FINISH:Black STOCK/FRAME:Polymer Frame SPC FEATURE:Threaded Barrel Model CALIBER/GAUGE:9mm CAPACITY:15+1 # OF MAGS:3 MAGAZINE DESC:15 rd. We currently offer HK VP9 P30 magazine upgrades, such as a magazine plate with a built-in finger extension for better grip and tighter groupings at the range, and we have plans to expand our selection of aftermarket VP9 P30 P30SK VP9SK parts to include many more options for customization and upgrading. 95 plus2-1125 RCI PLUS 2 – 1. However, in VP9, true keyframes were forced every 30 frames. Ambidextrous slide release - the left side slide release is shorter on the VP9 than the P30, but it seems to me that it sticks out further from the frame (on both the P30 and the VP9) than slide releases on other handguns. 5 (2) H&K 45V/P30/VP9 HD NIGHT SIGHT SETS. Plastic fantastic is an often affectionate name given to polymer frame, double stack, striker-fired guns that are usually 9mm, but 40 S&W also qualifies. VP9 is a step ahead of the open-source VP8 codec but up to now has only been supported by the Chrome browser. The VP9 out of the box is pretty much perfect. PS, if you’ve got larger hands the paddle mag release may surprise you nice you start using it. Buy Heckler & Kock HK H&K VP9-SK VP9SK 9mm OD Green Frame $. Great deals on Heckler & Koch Pistol Parts. 9 ounces, and capacity is 13+1 of. However the problem doens't happen on any resolution on my one x if the codec is vp9(303) and below, when it shows up as vp9(315) which I think is 4k 60fps and the number below 315 is 4k 30fps is when the glitches appear and I can have up over 1k of dropped frames from this glitch. The new VP9 grey model is manufactured using special colorants added to the frame during the molding process. jpg" -c:v libvpx-vp9 -vf "fps=10,format=yuv420p" out. The VP9 is a better pistol period. The group using in vp9 is as below: it starts from key frame, but when the golden reference frame is updated, it makes a gf group. 1) Extended Reference Frames: AV1 extends the number of refer-ences for each frame from 3 to 7. Simply replacing x264 with x265 in the guide will not work. Shop online and in store. chromium / webm / libvpx / c77b1f5acd09852aff1ba09d7f371728a60634d7 /. Today, 07:15 PM. Plus, it comes equipped with fixed sights, a Weaver/Picatinny rail, and 1. HK color frame models cannot fade or chip and are unaffected by chemicals, sun, and exposure to the elements. 95 Add to cart. HK VP9 - Frame Parts HKparts. No tools, screws or hardware required. Will come with box, docs, lock, and mags. Design Information about the dimensions and weight of the device, shown in different measurement units. Also as mentioned it has the wings/ears/whatever extensions on the rear of the slide to aid with pulling the slide back. We use cookies for various purposes including analytics. On Windows VP9 GPU acceleration works fine and decoder load is even displayed in the task manager. com : Safariland Holster Heckler & Koch H&K HK45 & Compact P2000 P2000SK P30 P30L USP VP40 VP9 578-450-551 Wide Standard GLS Standard Frame Multi-Fit Right Hand, FDE Tan + Ultimate Arms Mag Pouch : Sports & Outdoors. The tigger reach is too close for me; if I select the P320, then I will get the LARGE grip module for the compact frame to extend the trigger reach. 0%, compared to x264 main profile, x264 high profile and libvpx-vp9, respectively. The group using in vp9 is as below: it starts from key frame, but when the golden reference frame is updated, it makes a gf group. In this Gunivore breakdown, we are going to take apart the VP9 and VP40 to see if HK's most recent additions live up to the company's exceptional reputation. Muzzle support recommended for round trigger guards. It is a golden age for high capacity, conformable grip, polymer frame, mid-sized weapons. Making both codecs use a true fixed quantizer and removing the forced intra frames made the results more like Google's own paper. Additional features include a reversible push button magazine release, ambi. Nov 27, 2007 1,108 208 106. Introduction 1. The net result is trigger quality unequaled in any production striker fired handgun. It is well-suited for civilian sport shooting, security, military, and law enforcement use. The Colt Gold Cup is known as the finest shooting semi-automatic in the world, and is the standard for competitive guns. The way VP9 works this meant that every 30 frames it encoded both a new Intra frame, and a new golden frame. This means that a VP9-based still image format (unlike VP8-based WebP) could encode multiple resolutions to be loaded and decoded progressively, at each step encoding only the differences. In fact, it takes about 3lbs of force to push or wiggle the slide against the frame. Learn more ffmpeg is preferring to encode in VP9 but I'm trying to encode in VP8. An extended Picatinny MIL-STD 1913 rail molded into its polymer frame for mounting lights and accessories. 2 Overview of Compressed Frame Format 2. An interesting feature of VP9 is the possibility to scale down frames during encoding (not on iframes). HECKLER & KOCH M700009A5 VP9 9MM (2)15R $ 757. Making both codecs use a true fixed quantizer and removing the forced intra frames made the results more like Google's own paper. At this point I have over 42,000 rounds through them, and I still love them. 2020 vp9 heckler & koch heckler & koch sp5 heckler & koch vp9 hk sp5 HK VP9 hk vp9 2020 new pistol shot 20 hk sp5 shot show 2020 shot20hksp5 updated vp9 vp9 2020 what's hot at shot 2020. Denoiser is used in real-time mode which does not use alt-ref. Grand Power X-Calibur USPSA Limited Small Frame Base Pad $ 39. : Enforce minimum golden reference frame distance as a stress test for decoding speed. In this Gunivore breakdown, we are going to take apart the VP9 and VP40 to see if HK's most recent additions live up to the company's exceptional reputation. Kepler and Maxwell first generation had only H. OK, I Understand. I picked up my first VP9 in early 2015 and fell in love with the platform. The VP9 is 7. Holds a pointer to the golden reference frame. However, in VP9, true keyframes were forced every 30 frames. Mirror only. One major concern I had with AV1 in my First Looks review was playback CPU requirements. I have to agree with the VP9>Glock opinion. It is well-suited for civilian sport shooting, security, military, and law enforcement use. HK VP9 OR, Striker Fired, 9mm, 4. The Colt Gold Cup is known as the finest shooting semi-automatic in the world, and is the standard for competitive guns. Steel frames dampen recoil more than polymer frames. SAS Tactical Customs. My computer pulled about 70-80w while playing it. I picked up my first VP9 in early 2015 and fell in love with the platform. In order to keep the process easier to understand, i did not include arf frame here. For use in: USP - Full-Size 9mm - 15 Rounds UPS - Compact 9mm - 13 Rounds. We use cookies for various purposes including analytics. Shop for LCP, VP9, NXR OCG-Main-Products at Osage County Guns. org Stats: 1080p 8-bit YUV To VP9 Video Encode Intel Core i5-6200U Intel Core i7-7500U Intel Xeon E3-1235L v5 Intel Core i7-8550U Intel Xeon E5-2609 v4 Intel Core i5-6500 4 x Intel Core Intel Xeon E3-1260L v5 Intel Core i3. Agency Arms was created in January of 2015 and created by weapons operators themselves interested more in the functionality than the visual appeal. 45ACP, Black SG603-C-600860. I handled and dry fired a new unfired HK VP9 today that was just purchased by a friend why was ready to send it back to HK. with up to three reference frames (last frame, golden frame. From: Boris Brezillon The Rockchip VDEC supports VP9 profile 0 up to [email protected] Match Weight, HK VP9, Aluminum w/o Rail. HK VP9 -- Finally a serious new competitor? This is a discussion on HK VP9 -- Finally a serious new competitor? within the Defensive Carry Guns forums, part of the Defensive Carry Discussions category; HK isn't new to striker fired pistols, they produced the VP70 and P7 after all, but for a coupe of decades they've turned their back. Slide releases are present on both sides of the frame, and the paddle-style magazine release can be easily activated by left- or right-handed shooters. Browse Cabela's for a huge selection of automatic handguns and pistols from brands like Glock, Sig, Springfield, Beretta, Colt, and S&W. chromium / webm / libvpx / c77b1f5acd09852aff1ba09d7f371728a60634d7 /. We currently offer HK VP9 P30 magazine upgrades, such as a magazine plate with a built-in finger extension for better grip and tighter groupings at the range, and we have plans to expand our selection of aftermarket VP9 P30 P30SK VP9SK parts to include many more options for customization and upgrading. Current order processing time frame: 5 business days USPS First Class Mail is currently taking over 2 weeks for delivery from ship date. From a bitstream perspective they are just named frame buffers and can be used interchangeably. In fact, both barrels measure right around 4 inches, with overall lengths of a little more than 7 inches. Multithreaded VP9 decoding (tile and frame-based) Multithreaded VP9 encoding - on by default: YUV 4:2:2 and 4:4:4 support in VP9: 10 and 12bit support in VP9: Faster AV1 encoding and decoding: Multithreaded AV1 decoding (tile and frame-based) Multithreaded AV1 encoding - on by default: YUV 4:2:2 and 4:4:4 support in AV1: 10 and 12bit support in AV1. Denoiser is used in real-time mode which does not use alt-ref. The machined steel slide is protected from corrosion and wear by HK's hostile environment finish and all metal components, including springs and pins have superior metallurgy. net has got you covered. The VP9 is better in every way except for the (Unnecessary) ability to change frame sizes (Which is useless unless you buy the 400$ conversion kit to shorten or lengthen the slide anyway, might as well buy a whole new gun. No tools, screws or hardware required. Nov 27, 2007 1,108 208 106. Since we run VP's as daily CCW guns, staff is always on the lookout for VP9 products, parts, holsters, etc. This should perform well on ancient Thuban/FX CPUs w/ Pascal GPUs even without proper VP9 HW decode. VP9: Which Will Win? By TVTechnology 04 December 2014. 265) is a state-of-the-art video compression standard that provides about a 50 percent bit rate savings over H. The HK Parts VP9, VP40 match weight/compensator is the world's first quick detach match weight, compensator. There is a growing market for users to get their polymer guns stippled—a professionally-done. 07-10-14, 22:16. net has got you covered. 8" SIGHTS:Night Sights ADDL INFO:2 Additional. G19/19x, VP9, P-10c, PPQ, Kahr, etc. GP G&P HID Flashlight Sight : Solarforce Flashlight : 6P 9P 12P L600M L600 L600S L1200 T7 T700: Ultrafire Flashlight : Ultrafire UF-007 Recoil LED CREE Lumen CREE R2 CREE Q5 P4 Bulb for Surefire 6P 9P : Green Laser Sight : Red Dot Sights : Rifle Scopes : the premier retailer of Red Dot Sights : Rifle Scopes in the world. 24 total views, 24 today. With the right size, weight, portability, and effectiveness to provide portable protection, the handgun has been the most popular form of individual defensive protection since its development. 2 Overview of Compressed Frame Format 2. At this point I have over 42,000 rounds through them, and I still love them. The squadron was established on 15 March 1951. The rail has been tested and certified to handle the heavier mounted accessories because of its full size which adds rigidity. 2, DMDext, X/UltraDMD, B2S, DX9webinstaller. Gold - HK VP9, VP40. The way VP9 works this meant that every 30 frames it encoded both a new Intra frame, and a new golden frame. Ambidextrous mag release paddles under the trigger guard. Learn more before you buy, or discover other cool products in Airsoft & Paintball. with up to three reference frames (last frame, golden frame. From a bitstream perspective they are just named frame buffers and can be used interchangeably. VP stands for Volkspistole which translates to "people's pistol" which is perfect for who its catered to. 40 S&W) joins the 9 mm VP9 that was introduced to the U. They are custom spec'd Dawson Precision sights. libvpx VP9-specific parameters speed Codec control function to set encoder internal speed settings. 95 HK PARTS Enhanced Slide Cap - Blue - VP9, VP9SK & VP40 - $29. Patrol Squadron 9 (VP-9) is a U. Figure 7 shows CPU requirements playing back 1080p video on the same notebook I used for the review (HP ZBook notebook powered by a 2. The first Colt Gold Cup pistol was introduced in the late 1950’s to give competitive shooters a gun to take directly from the dealer’s showcase to the firing line. VP 9 GOLDEN EAGLES Photo Gallery by Paul Newman at pbase. net carries all of the essential frame parts to fulfill your HKVP9SK needs. Enhanced Slide Cap VP9, VP9SK & VP40 - HK Red - $29. After four years of development the HK VP9 was born. The RMR cut will result in a co-witness with suppressor sights (not included). 95; Tanfoglio / Grand Power Aluminum Base Plate for Large Frame Magazines [H250-T] $ 14. HECKLER & KOCH M700009A5 VP9 9MM (2)15R $ 757. Learn more ffmpeg is preferring to encode in VP9 but I'm trying to encode in VP8. Gold Package $320 Recessed Borders with Grip Reduction Gas Pedal Index Points Premium Texture Options ( Jaw Breaker, Chain Link SML, Micro Dot, Sprinkle SML, Lava, Snake Skin, Trigon ) Mag Scallop Gen 3 or Older Frames Glove Bevel Exposed Borders Dehorned Trigger Guard Permanently attach backstrap *Optional High Tang Back Double Under Cuts. Sights in product picture are Heinie. Buy HK VP9 Barrel Factory replacement gun parts, accessories and gunsmithing service on most manufacturers including Browning, Winchester, FN America, Beretta, Benelli Franchi, Stoeger, Remington, Bushmaster, Marlin, Sig Sauer, HK and many more. Welcome to the World Famous Golden Eagles! Patrol Squadron NINE is a P-8A Poseidon Naval Squadron home ported at Whidbey Island, Washington. blob: cba15e693e9dac8532c70aebc52a10f920346fbd [] [] []. 125 FOR XTENSIONS AND XM2BE MONOTUBES $ 44. Let us know. Gold - HK VP9, VP40. We can cut your slide for any slide mounted red dot sight (Trijicon, Leupold, Vortex, etc. • PC flat face, gold colored anodized aluminum trigger • PC enhanced gold colored anodized aluminum grip safety • PC ported, Titanium coated, gold finish barrel • Easy to rack slide • Performance Center action, crisp, lightweight trigger with tactile and audible trigger reset • HI-VIZ® Litewave H3™ Tritium/Litepipe Sights. This ammo’s main objective is to make sure that people can access the best and cheap ammo for the 9mm concealed carry. and ALTREF (or invisible) frame) chosen from a pool of eight Fast Video Transcoding from HEVC to VP9 343 [9] G. The VP9 out of the box is pretty much perfect. HK VP9 chambered in 9mm, striker fired system, polymer frame, picatinny rail, 15RD +1 capacity, polygonal hammer forged barrel, ambidextrous controls, changeable grip backstraps and side panels, made in Germany. (Specifically, a frame may use any references whose width and height are between 1/16th that of the current frame and twice that of the current frame, inclusive. For the most part, these were allayed. HK VP9 vs Walther PPQ. VP9 Bitstream ­ superframe and uncompressed header DRAFT Rev 1. We can cut your slide for any slide mounted red dot sight (Trijicon, Leupold, Vortex, etc. HK VP9 VP9 VP9 SK VP9 Tactical VP40 Para Ord Para Ordinance Will work with all Para double stack pistols. Sig Sauer P226. HK's cold hammer-forged barrel made from cannon grade steel ensures long service life. Since we run VP’s as daily CCW guns, staff is always on the lookout for VP9 products, parts, holsters, etc. Trijicon Trijicon HD XR Night Sight Set, Yellow Front Outline for HandK 45C/P30/VP9, Black HK610-C-600895 28 of 54 images Trijicon Trijicon HD XR Night Sight Set, Yellow Front Outline for Sig Sauer. In development for more than four years, the VP9 is HK's first striker-fired handgun since the P7 series was introduced in the 1980s. If you do not specify a video bitrate, it defaults to something low which gets you Constrained Quality mode, where each frame has a maximum bitrate. Columbus, Georgia — Heckler & Koch added a. After four years of development the HK VP9 was born. The tigger reach is too close for me; if I select the P320, then I will get the LARGE grip module for the compact frame to extend the trigger reach. The big feature is tile threading support. Design Information about the dimensions and weight of the device, shown in different measurement units. the pistol features a black frame finish, semi automatic action, 4 inch barrel, 17 round capacity, two 17 round magazines, and much more! this h&k vp9 is new in box the pistol is in overall mint condition. For me, striker is fine, however my preference is my P30SK V1 lite LEM Yes, own both & USP 45 Tactical with a 40 T on the way, 😎. For over half a century, Heckler & Koch has been a leading designer and manufacturer of small arms and light weapons for law enforcement and military forces worldwide. 09" Capacity 17+1 Frame Material Polymer Accessories 2 Mags Barrel Description Polygonal. 00g Upgraded Crusader Kit: - Steel. After decoding, the current frame can (optionally) substitute one of the 8 slots in the pool. HKSummer18 - 12% off HK Services - Ends September 21, 2018 (valid on HK slide milling & refinishing services). An extended Picatinny MIL-STD 1913 rail molded into its polymer frame for mounting lights and accessories. Frame Fragmentation VP9 frames are fragmented into packets, in RTP sequence number order, beginning with a packet with the B bit set, and ending with a packet with the RTP marker bit M set. It corresponds to active_ref_idx[1] in VP9 code. From a bitstream perspective they are just named frame buffers and can be used interchangeably. au makes no warranty, authorises or endorses the accuracy, currency, suitability or completeness of any information contained in advertisments. 263 , Golden Frames wurden schon in VP5 [22] und VP7 [23] benutzt. 383 Stream size : 163 MiB (99%) _____ Second I used FFmpeg git-1bbb5ea build to create VP9 and H. Polish after it is dry. Gun Type: Para Ord, Tanfoglio (square trigger quard/ StockII), 1911 Steel Frame, BUL M5 (round trigger quard), Sphinx 3000, Sig X-5, S&W N Frame, S&W M&P, Beretta 92F, GP X-Calibur MK07, GP X-Calibur MK12, HK VP9, SV Aluminum or Steel, STI 2011, Caspian (Square Trigger Guard), Tanfoglio Stock III, S&W L/K Frame, SPS/BUL SAS, GP6/K. If I tax the GPU while playing, it starts to drop frames. Stack Overflow for Teams is a private, secure spot for you and your coworkers to find and share information. H&K HK45-Designed to fit the H&K VP9, HK P30, P30L, HK45, HK 45C Kimber Adjustable- Designed to fit Kimber 1911 with adjustable rear sight Kimber Fixed- Designed to fit Kimber 1911 with fixed rear sight. GOLDEN Reference Frame index Specifies the index to RefFrameList[] which points to the Golden reference frame. VP9 is the successor to VP8 and competes mainly with MPEG's High Efficiency Video Coding (HEVC/H. A collection of services commonly offered for the HK platforms. It uses the 15-round magazines from the P30, and it comes with two of those in the black plastic case along with small, medium, and large backstraps and side panels, a magazine loader, owner's manual, fired case, decal, and HK gun lock. 95; Tanfoglio / Grand Power Aluminum Base Plate for Large Frame Magazines [H250-T] $ 14. The grey frame VP9—available in 9 mm—joins flat dark earth and standard black color versions of the well-known HK pistol. -ev videotestsrc num-buffers=60 ! timeoverlay ! vaapivp9enc ! matroskamux ! filesink location=test. 09 inches and a weight of 25. The VP9 is well-suited for civilian sport shooting, security, military, and law enforcement use. With VP9, HDR metadata can't be transported by a VP9 message. The rail has been tested and certified to handle mounted accessories up to 5. jpg" -c:v libvpx-vp9 -vf "fps=10,format=yuv420p" out. 103 Warrior Way Germantown Hills, IL 61548: Mr. UMAREX VP9 standard TAN color GBB Airsoft Gun - VP 9 is a 9 mm polymer frame pistol developed in 2014 by Heckler & Koch in Germany. VP9 pistols will continue to be offered with an adaptable grip frame, allowing users to interchange both backstraps and grip panels in 27 unique configurations. HK used a lever-type magazine release on the VP9 that is located at the rear of the triggerguard. I picked up my first VP9 in early 2015 and fell in love with the platform. Patrol Squadron 9 (VP-9) is a U. A typical frame rate for layers 0, 1 and 2 is 7. Enforce minimum golden reference frame distance as a stress test for decoding speed. The CZ-75 (or clone), Beretta 92, and SIG P226 are classics—not to mention 1911s. The VP9 trigger is lighter than the double action on the P30 and its operation is more simple as there is no manual safety or decocker to have to remember to use. The machined steel slide is protected from corrosion and wear by HK's hostile environment finish and all metal components, including springs and pins have superior metallurgy. It also has molded finger grooves for optimal shooting. The VP9 uses the proven P30 steel magazine, with 15 or 10 round capacity. 09 inches and a weight of 25. UMAREX VP9 standard TAN color GBB Airsoft Gun - VP 9 is a 9 mm polymer frame pistol developed in 2014 by Heckler & Koch in Germany. The rail has been tested and certified to handle mounted accessories up to 5. each participant can view either 30 fps, 15 fps or 7. jpg" -c:v libvpx-vp9 -vf "fps=10,format=yuv420p" out. The HK VP9 is one of the newest polymer-framed striker-fired pistols from Heckler & Koch. 2013-11-15 v1. Customize amazing pictures by adding your photos and text. Inherent are adjustments in the depth of carry, angle of carry and the position of carry. Review: Heckler & Koch VP9SK The VP9SK's three sizes of backstraps and side-panel pairs allow you to completely customize the grip to fit your hand. The VP Series integrates a striker firing system with an enhanced, HK "light pull" trigger. I have a VP9 and rented a P30 recently. However, some VP8 options do not map to VP9 in the same manner. If I tax the GPU while playing, it starts to drop frames. SVT-VP9 Encoder also supports 3 modes: A visually optimized mode for visual quality (-tune 0). libvpx VP9-specific parameters speed Codec control function to set encoder internal speed settings. The VP9 takes a couple of features from other H&K pistols bringing them into one. H&K VP9 FDE $650 OBO Spent $1,125 on it *Disc. Black Scorpion Gear is an industry-leading competition and concealment manufacturer, catering to enthusiasts and professionals around the world. The world is filled with plastic fantastics. Looking for a VP9SK For Sale? Quickly Find an in stock VP9SK for Sale at over 1600 Stores, Auctions, and Classifieds in one click! HECKLER & KOCH VP9 SK, 9MM, 3. The net result is trigger quality unequaled in any production striker fired handgun. Change-Id: I54ba3bcaeeb1818bbdf718ef90e97d4897ff793d. gf_cbr_boost Boost percentage for Golden Frame in CBR mode. The VP9 is well-suited for civilian sport shooting, security, military, and law enforcement use. INCOG ECLIPSE is a mission specific evolution of the INCOG IWB concept. This includes 2 17-round magazines, ma. 50 Height 3. VP9 is a step ahead of the open-source VP8 codec but up to now has only been supported by the Chrome browser. It corresponds to active_ref_idx[1] in VP9 code. In fact, it takes about 3lbs of force to push or wiggle the slide against the frame. I have a VP9 and rented a P30 recently. blob: b4d4ef5302dd13f39a9cb0c5a49231a74230927c. I’m obviously going to some lengths to set this up, but it is interesting to cast the VP9 as both the bad guy’s gun in Spectre as well as Bond’s gun. com The VP9 is a polymer frame striker fired pistol that looks like a cross between a Glock, Walther P99, Smith and Wesson M&P and HK USP. The VP Series integrates a striker firing system with an enhanced, HK "light pull" trigger. Stress Bitstreams are provided. It also has molded finger grooves for optimal shooting. / vp9 / vp9_cx_iface. We are also doing lightning cuts of the slide to reduce felt recoil and add texture for you to better control the manipulation of your slide. An extended Picatinny MIL-STD 1913 rail molded into its polymer frame for mounting lights and accessories. Streams cover all the feature sets and profiles of VP9 format. 700009FDELEL-A5, UPC 642230255166, VP9 with FDE (Flat Dark Earth) frame, with three 10rd magazines and night sights - MSRP $819 Part no. This is a discussion on HK VP9 vs Sig P320C 9mm's - Neck n Neck race within the SIG Sauer Pistols forums, part of the SIG Sauer Forum category; Ran across some video comparisons between HK VP9 vs Sig P320C. The net result is trigger quality unequaled in any production striker fired handgun. For use in: USP - Full-Size 9mm - 15 Rounds UPS - Compact 9mm - 13 Rounds USP - Full-Size. 00; HI-POINT MODEL 34010 40SW 4. The VP9 is well-suited for civilian sport shooting, security, military, and law enforcement use. Boost percentage for Golden Frame in CBR mode. Slide releases are present on both sides of the frame, and the paddle-style magazine release can be easily activated by left- or right-handed shooters. 2-15rd mags and replacement palm and back. VP9-HLG YouTube HDR). I handled and dry fired a new unfired HK VP9 today that was just purchased by a friend why was ready to send it back to HK. In development for more than four years, the VP9 is Heckler & Koch's latest handgun and the first striker fired HK since the renowned P7 series pistols were introduced in the 1980s. 30 Weight 3. (MDS) short/wide frame has been designed and is. The world is filled with plastic fantastics. VP9 is the successor to VP8 and competes mainly with MPEG's High Efficiency Video Coding (HEVC/H. VP8 is an open and royalty free video compression format created by On2 Technologies as a successor to VP7 and owned by Google from 2010. 1 Frames, Tiles and Blocks 1. Also as mentioned it has the wings/ears/whatever extensions on the rear of the slide to aid with pulling the slide back. From a bitstream perspective they are just named frame buffers and can be used interchangeably. 00; Sale! Heritage Rough Rider Combo 22lr/22mag RR22MB4 Due to high volume please call fro availability 601-605-5353 $ 184. com, NRA Firearms for Freedom, Hickok45 and MORE!. The Ruger EC9S 9mm is a semi automatic, striker fired pistol. HK's cold hammer-forged barrel made from cannon grade steel ensures long service life. The VP9 does not go all the way and the removable backstrap panel from the 9mm guns is molded in with the grip frame, so one size has to fit all. Intel Graphics Technology (GT) is the collective name for a series of integrated graphics processors (IGPs) produced by Intel that are manufactured on the same package or die as the central processing unit (CPU). How do these options affect the other available encoding options (ex. Whether it's security, military, law enforcement or civilian sport shooting, step up to striker-fired perfection with HK's VP9 Pistols. Re: [PATCH v3 2/3] media: uapi: Add VP9 stateless decoder controls. It is important to set the video bitrate to zero. Pistol - Red Dot Cutout. Model: HK700009FDELEL-A5. Slide $110. This is for VP9 table by starman's pinball set. Frame Parallel decoding fails for segmented and non-420 files. VP8 uses three types of reference frames for inter prediction: the last frame, a "golden" frame (one frame worth of decompressed data from the arbitrarily distant past) and an alternate reference frame. US Made, Always In Stock, Lifetime Warranty, & Free Shipping. 40 caliber model to its new VP striker fired pistol line. For the most part, these were allayed. Inter Prediction. At the time of first presentation of VP8, according to On2 the in-loop filter and the Golden Frames were among the novelties of this iteration. The VP9 trigger is lighter than the double action on the P30 and its operation is more simple as there is no manual safety or decocker to have to remember to use. When played using the Samsung YouTube player they glow bright gold in the sunlight using vp9. Learn more ffmpeg is preferring to encode in VP9 but I'm trying to encode in VP8. HK VP9 chambered in 9mm, striker fired system, polymer frame, picatinny rail, 15RD +1 capacity, polygonal hammer forged barrel, ambidextrous controls, changeable grip backstraps and side panels, made in Germany. Ilia commented, "Tile threading is ~35% faster at 2 threads vs 1. Competition Holsters. VP8 uses three types of reference frames for inter prediction: the last frame, a "golden" frame (one frame worth of decompressed data from the arbitrarily distant past) and an alternate reference frame. Please visit our official homepage at www. An open-bridge design provides viewers with long-term viewing comfort and enhanced stability, while fully multi-coated optics deliver unparalleled clarity and color. - it appears VP9 is not adopted by a lot of people yet, except for WebRTC that also supports VP8 (and in fact the support for VP9 in WebRTC is really basic and does not use at all the new features, providing a user experience much lower than VP8). Each and Every Grip is Precisely Milled and Handmade by Owner David Gates. Real-time encoding of up to two 4Kp60 streams on the Gold 6140 with M8. 2 codec (336) with the color line appearing in youtube stats for nerds as bt2020 with the viewport = 1920x1080*2 and horizon window bars across the full screen width. Customize amazing pictures by adding your photos and text. The VP9 is well-suited for civilian sport shooting, security, military, and law enforcement use. In looking over the gun, I couldn’t help but notice that all the controls are ambidextrous. It has a smooth and resistance-free take up, a clear wall, and a decent break. Urban Camo. HK VP9 Triton Drop Holster Hawaii 5. Navy patrol squadron located at Marine Corps Base Hawaii. Making both codecs use a true fixed quantizer and removing the forced intra frames made the results more like Google's own paper. 264 files of course I used lossless mode for both formats vp9 -lossless 1 H. Intra Prediction 10 Prediction modes with 8 directions, DC_PRED and TM_PRED. The slide is machined ever so slightly differently than the VP9, so you're likely to find that a VP40 will not work in a VP9 holster nor vice versa. ) This allows internal resolution changes without requiring the use of key frames. World renowned and the choice for many of the premier global military, law enforcement and commercial users. GOLDEN Reference Frame index Specifies the index to RefFrameList[] which points to the Golden reference frame. The big feature is tile threading support. Aug 12, 2018 - HECKLER & KOCH - VP9 4. Airsoft Global! --Out of Stock--Umarex/ VFC H&K VP9 GBB Pistol ( New, Deluxe, Asia Edition ) [URX-GP-VP9-ND-AG] - - Material: Metal Slide, Polymer Frame - System: Gas Blowback - Gas: Top Gas/ Green Gas - Hop-Up: Adjustable - Firing Mode: Safe/ Semi-Auto - Length: 185mm - Inner Barrel Length: 95mm - Magazine Capacity: 24+1 Rounds ( 6mm BBs ) - Weight: 960. 09" Capacity 17+1 Frame Material Polymer Accessories 2 Mags Barrel Description Polygonal. Example launch line gst-launch-1. Gold - HK VP9, VP40. As the input -framerate is lower than the output fps, FFMPEG will duplicate frames to reach your desired output frame rate (which is 10 according to the command above). 40 caliber model to its new VP striker fired pistol line. Overview Manufacturer Heckler & Koch Series VP Model VP9 Manufacturer Part Number 700009LEL-A5 UPC 642230251793. frm_resize. The Air View Binoculars Series from Barska is a compact binocular designed to excel under conditions that require lightweight portability and carrying comfort. vaapivp9enc. 56 ounces (empty). I handled and dry fired a new unfired HK VP9 today that was just purchased by a friend why was ready to send it back to HK. The VP9 is the 3rd striker fired pistol that H&K ever produced. On modern CPUs on encoders such as svt-vp9, the frame rate isn't even that terrible. 01 Start: GunBroker is the largest seller of Semi Auto Pistols Pistols Guns & Firearms All. The VP9 from Heckler & Koch, which was released in 2014, is now available in airsoft form. HK VP9 - Frame Parts HKparts. HK VP9 SK 9mm Luger Double 3. uint32_t ref_gf_sign_bias: 1 Specifies the Sign Bias of the GOLDEN reference frame. If you arent geared for raids and are using the heroics to get better gear it would take you approximately 4 months of heroics every day to get enough passing gear, assuming you get good drops from the heroics, to go on a raid. Muzzle support recommended for round trigger guards. HEVC (High Efficiency Video Coding, also called MPEG-H Part 2 and ITU-T H. Mirror only. The distinction between the two frame types is purely by encoder convention. VP9 also allows a reference frame to be resampled and used as a reference for another frame of a different resolution. Firearms; Showing 41–80 of 137 results Heckler and Koch VP9 – Optics Ready – HK VP9 $ 669. 41 inches, width of 1. 32 inchs wide, and the barrel is 4. For over half a century, Heckler & Koch has been a leading designer and manufacturer of small arms and light weapons for law enforcement and military forces worldwide. Enhanced Magazine Release - Gray - HK VP9, VP40. Frame Work A lip at the front of the wide magazine well completes a finger groove, and the sides afford manual extraction of a mag. com The VP9 is a polymer frame striker fired pistol that looks like a cross between a Glock, Walther P99, Smith and Wesson M&P and HK USP. This page is intended to provide updated information and discussion on VP-9. org Stats: vpxenc VP9 1080p Video Encode POWER9 Intel Core i3-7100U Intel Core i7-5600U Intel Core i7-2700K Intel Core i7-8550U Intel Core i5-8250U Intel Core i7-1065G7 AMD Ryzen 5 2600 Six-Core 2 x Intel Xeon Gold 6138 AMD Ryzen 5 3400G Intel. The magazine release and slide release can both be activated from either side of the gun. The VP40 is also about 0. Corresponds to active_ref_idx[2] in VP9 code. OVERALL LENGTH:7. This brand new Heckler & Koch VP9 (81000483) is a semi-automatic pistol which fires the 9mm round. Gold - HK VP9, VP40. PMM is now machining H&K VP9 & VP40 slides to mount a Trijicon RMR to your pistol. Examples of VP9 RTP Stream TODO 5. 1 Frames, Tiles and Blocks 1. VP9 support will officially appear in Firefox 28. Alternate Reference Frames in VP8 VP8 uses three types of reference frames for inter prediction: the last frame, a "golden" frame (one frame worth of decompressed data from the arbitrarily distant past) and an alternate reference frame. The RMR cut will result in a co-witness with suppressor sights (not included). It is well-suited for civilian sport shooting, security, military, and law enforcement use. The finish on this VP9 is resistant to fading. NDZ Performance Standard Billet Aluminum Magazine Plate for NDZ Heckler & Koch H&K P30SK, VP9SK, P30, VP9 9MM. 263 standard, though, and Golden Frames were already in. What started with the success of Glock has become the success of the entire industry. 264, which raises the quality by a good chunk. Browse our collection of KYDEX Holsters. To the best of my knowledge, no NVENC implementation offers hardware accelerated VP9 encoding. Fernandez. HK VP9 Optics Ready 9mm 4. HK VP9 SK 9mm Luger Double 3. With the right size, weight, portability, and effectiveness to provide portable protection, the handgun has been the most popular form of individual defensive protection since its development. Heckler and Koch VP9 Grey 9mm $ 619. Overview Manufacturer Heckler & Koch Series VP Model VP9 Manufacturer Part Number 700009LEL-A5 UPC 642230251793. SVT-VP9 Encoder also supports 3 modes: A visually optimized mode for visual quality (-tune 0). The first Colt Gold Cup pistol was introduced in the late 1950’s to give competitive shooters a gun to take directly from the dealer’s showcase to the firing line. It uses the 15-round magazines from the P30, and it comes with two of those in the black plastic case along with small, medium, and large backstraps and side panels, a magazine loader, owner's manual, fired case, decal, and HK gun lock. Let us know. Financing Details: MILITARY STAR promotions subject to credit approval. HK VP9 VP9 VP9 SK VP9 Tactical VP40 Para Ord Para Ordinance Will work with all Para double stack pistols. After four years of development the HK VP9 was born. Trijicon Trijicon HD XR Night Sight Set, Yellow Front Outline for HandK 45C/P30/VP9, Black HK610-C-600895 28 of 54 images Trijicon Trijicon HD XR Night Sight Set, Yellow Front Outline for Sig Sauer. Frame Parallel decoding fails for segmented and non-420 files. It has a 4" barrel and matte black finish. For over half a century, Heckler & Koch has been a leading designer and manufacturer of small arms and light weapons for law enforcement and military forces worldwide. Enhanced Magazine Release - Gray - HK VP9, VP40. This makes it possible to sell blowback action CO2 models like the VP9 for only around $80 (discounted by retailers) because the primary components can be more. The VP9 does not go all the way and the removable backstrap panel from the 9mm guns is molded in with the grip frame, so one size has to fit all. We can cut your slide for any slide mounted red dot sight (Trijicon, Leupold, Vortex, etc. The VP9 trigger is lighter than the double action on the P30 and its operation is more simple as there is no manual safety or decocker to have to remember to use. SIGHTS: 3 Dot, Radioactive Luminous WEIGHT: 26. The VP Series is Heckler & Koch's first striker-fired HK since the P7 series pistols introduced in the 1980s. Safety features include integrated trigger safety, manual safety, magazine disconnect and an inspection port that allows for visual confirmation of a loaded or empty chamber. Umarex 2252308. H&K HK45-Designed to fit the H&K VP9, HK P30, P30L, HK45, HK 45C Kimber Adjustable- Designed to fit Kimber 1911 with adjustable rear sight Kimber Fixed- Designed to fit Kimber 1911 with fixed rear sight. HK used a lever-type magazine release on the VP9 that is located at the rear of the triggerguard. However, some VP8 options do not map to VP9 in the same manner. uint32_t ref_arf_idx: 3. This page is intended to provide updated information and discussion on VP-9. The VP9 takes a couple of features from other H&K pistols bringing them into one. (Specifically, a frame may use any references whose width and height are between 1/16th that of the current frame and twice that of the current frame, inclusive. VP9 & VP40 Specs; Model: HK VP9; Caliber: 9mm Luger; Capacity: 15+1 (13+1 in. We use cookies for various purposes including analytics. It is a golden age for high capacity, conformable grip, polymer frame, mid-sized weapons. net carries all of the essential frame parts to fulfill your HKVP9SK needs. Our Standard Aluminum Floor Plate adds durability, reliability, and style, replacing plastic OEM plates for a stronger aluminum plate without adding additional length. 50 Height 3. If the CPU doesn’t support it, it will automatically fallback to Software decoder/encoder. Will come with box, docs, lock, and mags. Personally, I would go with a CZ. 2 Semantics. 34" RATE-OF-TWIST: 1-in-9. Corresponds to active_ref_idx[2] in VP9 code. Handguns are the ultimate form of personal self-defense. Firearms; Showing 41–80 of 137 results Heckler and Koch VP9 – Optics Ready – HK VP9 $ 669. 264/MPEG-4 AVC, which in. Muzzle support recommended for round trigger guards. Tel +39 0587 489190 Fax +39 0587 489901 Email [email protected] With its reversible magazine release and a slide lock/release lever accessible on both sides of the gun for easy manipulations, the VP9 B is an ambidextrous pistol suitable for all shooters, right or left handed. Pistol - Cerakote Frame Refinish. Intel Iris Graphics and Intel Iris Pro Graphics are the IGP series introduced in 2013 with some models of Haswell processors as. SAS Tactical Customs. Box 22222 San Diego, CA 92192-2222 Phone: 858-997-5138. The finish on this VP9 is resistant to fading. Trijicon Trijicon HD XR Night Sight Set, Yellow Front Outline for HandK 45C/P30/VP9, Black HK610-C-600895 28 of 54 images Trijicon Trijicon HD XR Night Sight Set, Yellow Front Outline for Sig Sauer. This page is intended to provide updated information and discussion on VP-9. Similar HK barrels on 9 mm P30 models have fired more than 90,000 rounds in endurance tests in 2010. The Intel® Media Software Development Kit* (further referred to as the Media SDK) is a software development package that exposes the media acceleration capabilities of Intel® platforms for video decoding, encoding, RAW video and photo. GP G&P HID Flashlight Sight : Solarforce Flashlight : 6P 9P 12P L600M L600 L600S L1200 T7 T700: Ultrafire Flashlight : Ultrafire UF-007 Recoil LED CREE Lumen CREE R2 CREE Q5 P4 Bulb for Surefire 6P 9P : Green Laser Sight : Red Dot Sights : Rifle Scopes : the premier retailer of Red Dot Sights : Rifle Scopes in the world. The slide is machined ever so slightly differently than the VP9, so you're likely to find that a VP40 will not work in a VP9 holster nor vice versa. Shop 500+ styles under $20. Superframe 3. Rock Island Some fitting may be required. GitHub is home to over 50 million developers working together to host and review code, manage projects, and build software together. Anyway, you can enable it if it’s supported it may improve a bit but won’t be day and night performance improvements. some prediction modes. PS, if you’ve got larger hands the paddle mag release may surprise you nice you start using it. 383 Stream size : 163 MiB (99%) _____ Second I used FFmpeg git-1bbb5ea build to create VP9 and H. Glock 26 gen 5. Is it just me or does the VP9 frame look more like an anthracite dark silver/grey than black ? PatrioticDisorder. some prediction modes. 40 S&W) joins the 9 mm VP9 that was introduced to the U. VP9-PQ YouTube HDR) and HLG (i. 2 Overview of Compressed Frame Format 2. Heckler & Koch VP9 Striker Fired 9mm Pistol New from the Heckler & Koch design team in Obemdorf, Germany is a new striker fired, polymer framed pistol with advanced features not found on the competitors striker fired sidearms. The backstraps are easily changed and secured to the frame with a single pin offering the following options: a short frame (SF) version, a medium (M) and a large (L) version. 34" RATE-OF-TWIST:1-in-9. / vp9 / vp9_cx_iface. Heckler and Koch VP9 Grey 9mm $ 619. It has built in all the required video codecs and audio codecs to encode from and into any. Current order processing time frame: 5 business days USPS First Class Mail is currently taking over 2 weeks for delivery from ship date. UMAREX VP9 standard TAN color GBB Airsoft Gun - VP 9 is a 9 mm polymer frame pistol developed in 2014 by Heckler & Koch in Germany. Among the work done by Ilia Valiakhmetov this summer on FFMpeg includes various patches to avcodec/vp9 that generally are 30~40% faster now thanks to the hand-tuned AVX2 code. The big feature is tile threading support. Home » Search results for "" Box, Springfield, Range Officer Elite, Operator, Semi-automatic, 1911, Full Size, 10MM , 5″ Match Grade Barrel, Steel Frame, Black T Finish, G10 Black. VP9 Bitstream ­ superframe and uncompressed header DRAFT Rev 1. While it has features not everyone will like, the HK VP9 striker-fired pistol is well made, good shooting and quite affordable. Since we run VP's as daily CCW guns, staff is always on the lookout for VP9 products, parts, holsters, etc. Heckler & Koch VP9 Pistol - Experience gained by HK engineers with the recent P30 pistol had a direct influence on the design of the VP9, but the VP9 breaks new ground with its integration of a unique striker firing system with an enhanced HK light pull trigger. For all of those fortunate men and women who will be joining our squadron in the near future, be sure to read about the information for ' New Arrivals '. Columbus, Georgia — Heckler & Koch added a. HK VP9 vs Sig P320C 9mm's - Neck n Neck race. VP8 uses three types of reference frames for inter prediction: the last frame, a "golden" frame (one frame worth of decompressed data from the arbitrarily distant past) and an alternate reference frame. Magazine springs for the H&K USP's are available in +10% extra power to improve feeding and reliability. Pistol - Cerakote Frame Refinish. 35 Caliber 9mm Luger Action DAO Sights 3 Dot Barrel Length 4. Skipped frames were due to me doing other things. The VP9 is one of them. If I put additional load on the GPU it does not drop frames. That is the kind of structure you can get from the libvpx reference encoder, but other encoders may do it differently. chromium / webm / libvpx / 2344e3a2e1600a2a31e63d2a82a9bbd0b91912b0 /. FN 66100587 509 Mid-Size MRD 9mm Luger 4" 15+1 NMS Black Black Steel Slide Black Interchangeable. It also has molded finger grooves for optimal shooting. Internet-Draft RTP Payload Format for VP9 October 2015 TODO: Cite terminology from [I-D. Ilia commented, "Tile threading is ~35% faster at 2 threads vs 1. To the best of my knowledge, no NVENC implementation offers hardware accelerated VP9 encoding. We are also doing lightning cuts of the slide to reduce felt recoil and add texture for you to better control the manipulation of your slide. Intel Iris Graphics and Intel Iris Pro Graphics are the IGP series introduced in 2013 with some models of Haswell processors as. Whether you are searching for a quick detach, or a magazine extension kit HKparts. ffmpeg has a -quality setting when encoding VP9 with options best, good, and realtime. I really, really like both guns. 95 HK PARTS Enhanced Slide Cap VP9, VP9SK & VP40 - Titanium - $59. Holds picture parameter information for a VP9 picture. I have to agree with the VP9>Glock opinion. Plastic fantastic is an often affectionate name given to polymer frame, double stack, striker-fired guns that are usually 9mm, but 40 S&W also qualifies. VP9 currently supports INTER prediction from up to three reference frame buffers (named LAST_FRAME, GOLDEN_FRAME and ALTREF_FRAME, as in VP8), but for any particular frame the three available references are dynamically selectable from a pool of eight stored reference frames. 99% APR and fixed monthly payments are required until promotion is paid in full and will be calculated as follows: on 36-month promotions, 0. -ev videotestsrc num-buffers=60 ! timeoverlay ! vaapivp9enc ! matroskamux ! filesink location=test. Reduce memory usage when denoiser is enabled. It has much in common with H. Walther PPQ vs HK VP9: A Detailed Review. US Made, Always In Stock, Lifetime Warranty, & Free Shipping. FN 66100587 509 Mid-Size MRD 9mm Luger 4" 15+1 NMS Black Black Steel Slide Black Interchangeable. In the case of YouTube VP9 streams, the encoder uses the alt-ref label for the hidden frames, golden for some earlier frame, and last for the immediately preceding frame. 95; Tanfoglio / Grand Power Aluminum Base Plate for Large Frame Magazines [H250-T] $ 14. 383 Stream size : 163 MiB (99%) _____ Second I used FFmpeg git-1bbb5ea build to create VP9 and H. 1" OVERALL LENGTH: 7. In the case of YouTube VP9 streams, the encoder uses the alt-ref label for the hidden frames, golden for some earlier frame, and last for the immediately preceding frame. If I tax the GPU while playing, it starts to drop frames. 265) is a state-of-the-art video compression standard that provides about a 50 percent bit rate savings over H. The decoder holds a list of 8 reference frames (slots) from which Last, Golden and AltRef refs are choosen at frame level. This results in the following list: 3840×[email protected]: 15Mbit. Introduced in 2014, the VP9 uses a polymer frame that houses the magazine and fire control group. The VP9 does not go all the way and the removable backstrap panel from the 9mm guns is molded in with the grip frame, so one size has to fit all. This includes 2 17-round magazines, ma. @LordNeckbeard The frame number in the video frames, ex. HK used a lever-type magazine release on the VP9 that is located at the rear of the triggerguard. In May 2010, after the purchase of On2 Technologies, Google provided an irrevocable patent promise on its patents for implementing the VP8 format, and released a specification of the format under the Creative Commons Attribution 3. It uses the 15-round magazines from the P30, and it comes with two of those in the black plastic case along with small, medium, and large backstraps and side panels, a magazine loader, owner's manual, fired case, decal, and HK gun lock. Handguns are the ultimate form of personal self-defense. It was first introduced in 2010 as Intel HD Graphics. The VP Series is Heckler & Koch's first striker-fired HK since the P7 series pistols introduced in the 1980s. Box 22222 San Diego, CA 92192-2222 Phone: 858-997-5138. GitHub is home to over 50 million developers working together to host and review code, manage projects, and build software together. NDZ Performance Standard Billet Aluminum Magazine Plate for NDZ Heckler & Koch H&K P30SK, VP9SK, P30, VP9 9MM. If you haven't ever tried a Red Dot or similar sight system on a semi-auto handgun,. Such pattern repeats every 64 frames. Whether you are searching for a quick detach, or a magazine extension kit HKparts.